Madelines Madeline 2018 720p WEB-DL x264 ESub [MW]

  • Category Movies
  • Type HD
  • Language English
  • Total size 885.3 MB
  • Uploaded By moviezworldz
  • Downloads 130
  • Last checked 2 months ago
  • Date uploaded 3 months ago
  • Seeders 9
  • Leechers 2

Madeline's Madeline

Drama

Madeline has become an integral part of a prestigious physical theater troupe. When the workshop's ambitious director pushes the teenager to weave her rich interior world and troubled history with her mother into their collective art, the lines between performance and reality begin to blur. The resulting battle between imagination and appropriation rips out of the rehearsal space and through all three women's lives.

Infohash : 766E666A10AB6F86BFEA51FB853C0A009ECA5FE7





General
Format : Matroska
Format version : Version 4 / Version 2
File size : 885 MiB
Duration : 1 h 33 min
Overall bit rate : 1 327 kb/s

Video
ID : 1
Format : AVC
Format/Info : Advanced Video Codec
Format profile : [email protected]
Format settings : CABAC / 4 Ref Frames
Format settings, CABAC : Yes
Format settings, RefFrames : 4 frames
Codec ID : V_MPEG4/ISO/AVC
Duration : 1 h 33 min
Bit rate : 1 200 kb/s
Width : 1 280 pixels
Height : 718 pixels
Display aspect ratio : 16:9
Frame rate mode : Constant
Frame rate : 23.976 (24000/1001) FPS
Color space : YUV
Chroma subsampling : 4:2:0
Bit depth : 8 bits
Scan type : Progressive
Bits/(Pixel*Frame) : 0.054
Stream size : 798 MiB (90%)
Writing library : x264 core 155 r2901 7d0ff22
Default : Yes
Forced : No9

Audio
ID : 2
Format : AAC
Format/Info : Advanced Audio Codec
Format profile : LC
Codec ID : A_AAC-2
Duration : 1 h 33 min
Bit rate : 128 kb/s
Channel(s) : 2 channels
Channel positions : Front: L R
Sampling rate : 48.0 kHz
Frame rate : 46.875 FPS (1024 SPF)
Compression mode : Lossy
Stream size : 85.6 MiB (10%)
Language : English
Default : Yes
Forced : No

Text
ID : 3
Format : UTF-8
Codec ID : S_TEXT/UTF8
Codec ID/Info : UTF-8 Plain Text
Duration : 1 h 26 min
Bit rate : 55 b/s
Count of elements : 1099
Stream size : 35.2 KiB (0%)
Language : English
Default : Yes
Forced : No


Click To Enlarge Image







Files:

Madelines Madeline 2018 720p WEB-DL x264 ESub [MW]
  • Madelines Madeline 2018 720p WEB-DL x264 ESub [MW].mkv (885.3 MB)

There are currently no comments. Feel free to leave one :)

Code:

  • udp://tracker.coppersurfer.tk:6969/announce
  • udp://tracker.pirateparty.gr:6969/announce
  • udp://tracker.coppersurfer.tk:6969/announce
  • udp://tracker.tiny-vps.com:6969/announce
  • udp://9.rarbg.me:2740/announce
  • udp://9.rarbg.to:2790/announce
  • udp://public.popcorn-tracker.org:6969/announce
  • udp://tracker.vanitycore.co:6969/announce
  • udp://tracker.opentrackr.org:1337/announce
  • udp://open.stealth.si:80/announce
SitemapHenry Danger: Season 5 | 한석만의 사건지평선 212930 문항 공모 | Back to login Thunderbolt Kabel | Girls’ Generation 1979 (Cantonese) - 少女時代1979Girls’ Generation 1979 (Cantonese) | IMDb: 5.2 8,447 HD Riding the Bullet