Pom Poko (Heisei Tanuki Gassen Ponpoko) 1994 1080p Bluray x265 10...

  • Category Movies
  • Type HEVC/x265
  • Language Japanese
  • Total size 3.4 GB
  • Uploaded By GetSchwifty
  • Downloads 367
  • Last checked 5 hours ago
  • Date uploaded 1 year ago
  • Seeders 2
  • Leechers 2

Pom Poko

AnimationFamily

As the human city development encroaches on the raccoon population's forest and meadow habitat, the raccoons find themselves faced with the very real possibility of extinction. In response, the raccoons engage in a desperate struggle to stop the construction and preserve their home.

Infohash : D6C2E586560F1BBAEC5F9FF7B00C2C753D26D09D

Source File:

Heisei Tanuki Gassen Ponpoko / Pom Poko [Movie] [RUS(int), JAP+SUB] [1994, Blu-ray] [1080p]



Media Information:


Code:

General
Unique ID : 216935172851975523750177809768817225329 (0xA33431CD48DA0DAAA11F52858AC9EE71)
Complete name : G:\Seeding\Pom Poko (Heisei Tanuki Gassen Ponpoko) 1994 1080p Bluray x265 10Bit AAC 2.0 - GetSchwifty\Pom Poko (Heisei Tanuki Gassen Ponpoko) 1994 1080p Bluray x265 10Bit AAC 2.0 - GetSchwifty.mkv
Format : Matroska
Format version : Version 4 / Version 2
File size : 3.41 GiB
Duration : 1 h 59 min
Overall bit rate : 4 097 kb/s
Movie name : Pom Poko
Encoded date : UTC 2017-12-28 20:59:45
Writing application : mkvmerge v14.0.0 ('Flow') 64bit
Writing library : libebml v1.3.4 + libmatroska v1.4.5

Video
ID : 1
Format : HEVC
Format/Info : High Efficiency Video Coding
Format profile : Main [email protected]@Main
Codec ID : V_MPEGH/ISO/HEVC
Duration : 1 h 59 min
Bit rate : 3 264 kb/s
Width : 1 920 pixels
Height : 1 024 pixels
Display aspect ratio : 1.85:1
Frame rate mode : Constant
Frame rate : 23.976 (24000/1001) FPS
Color space : YUV
Chroma subsampling : 4:2:0
Bit depth : 10 bits
Bits/(Pixel*Frame) : 0.069
Stream size : 2.72 GiB (80%)
Writing library : x265 2.5+58-06979c042350:[Windows][GCC 6.2.1][64 bit] 10bit
Encoding settings : cpuid=1050111 / frame-threads=3 / numa-pools=8 / wpp / no-pmode / no-pme / no-psnr / no-ssim / log-level=2 / input-csp=1 / input-res=1920x1024 / interlace=0 / total-frames=171460 / level-idc=0 / high-tier=1 / uhd-bd=0 / ref=5 / no-allow-non-conformance / no-repeat-headers / annexb / no-aud / no-hrd / info / hash=0 / no-temporal-layers / open-gop / min-keyint=23 / keyint=250 / bframes=8 / b-adapt=2 / b-pyramid / bframe-bias=0 / rc-lookahead=80 / lookahead-slices=6 / scenecut=40 / no-intra-refresh / ctu=64 / min-cu-size=8 / no-rect / no-amp / max-tu-size=32 / tu-inter-depth=1 / tu-intra-depth=1 / limit-tu=0 / rdoq-level=0 / dynamic-rd=0.00 / no-ssim-rd / signhide / no-tskip / nr-intra=0 / nr-inter=0 / no-constrained-intra / strong-intra-smoothing / max-merge=3 / limit-refs=3 / limit-modes / me=3 / subme=5 / merange=57 / temporal-mvp / weightp / weightb / no-analyze-src-pics / deblock=0:0 / sao / no-sao-non-deblock / rd=3 / no-early-skip / rskip / no-fast-intra / no-tskip-fast / no-cu-lossless / no-b-intra / no-splitrd-skip / rdpenalty=0 / psy-rd=0.30 / psy-rdoq=0.00 / no-rd-refine / analysis-reuse-mode=0 / no-lossless / cbqpoffs=0 / crqpoffs=0 / rc=abr / bitrate=3263 / qcomp=0.60 / qpstep=4 / stats-write=0 / stats-read=2 / cplxblur=20.0 / qblur=0.5 / ipratio=1.40 / pbratio=1.30 / aq-mode=3 / aq-strength=1.00 / cutree / zone-count=0 / no-strict-cbr / qg-size=32 / no-rc-grain / qpmax=69 / qpmin=0 / no-const-vbv / sar=0 / overscan=0 / videoformat=5 / range=0 / colorprim=2 / transfer=2 / colormatrix=2 / chromaloc=0 / display-window=0 / max-cll=0,0 / min-luma=0 / max-luma=1023 / log2-max-poc-lsb=8 / vui-timing-info / vui-hrd-info / slices=1 / no-opt-qp-pps / no-opt-ref-list-length-pps / no-multi-pass-opt-rps / scenecut-bias=0.05 / no-opt-cu-delta-qp / aq-motion / no-hdr / no-hdr-opt / no-dhdr10-opt / analysis-reuse-level=5 / scale-factor=0 / refine-intra=0 / refine-inter=0 / refine-mv=0 / no-limit-sao / ctu-info=0 / no-lowpass-dct / refine-mv-type=0 / copy-pic=1
Default : Yes
Forced : No

Audio #1
ID : 2
Format : AAC
Format/Info : Advanced Audio Codec
Format profile : LC
Codec ID : A_AAC
Duration : 1 h 59 min
Bit rate : 384 kb/s
Channel(s) : 2 channels
Channel positions : Front: L R
Sampling rate : 48.0 kHz
Frame rate : 46.875 FPS (1024 SPF)
Compression mode : Lossy
Delay relative to video : 9 ms
Stream size : 324 MiB (9%)
Title : Japanese AAC VBR 2.0
Language : Japanese
Default : Yes
Forced : No

Audio #2
ID : 3
Format : AAC
Format/Info : Advanced Audio Codec
Format profile : LC
Codec ID : A_AAC
Duration : 1 h 59 min
Bit rate : 374 kb/s
Channel(s) : 2 channels
Channel positions : Front: L R
Sampling rate : 48.0 kHz
Frame rate : 46.875 FPS (1024 SPF)
Compression mode : Lossy
Delay relative to video : 9 ms
Stream size : 318 MiB (9%)
Title : English AAC VBR 2.0
Language : English
Default : No
Forced : No

Text #1
ID : 4
Format : PGS
Muxing mode : zlib
Codec ID : S_HDMV/PGS
Codec ID/Info : Picture based subtitle format used on BDs/HD-DVDs
Duration : 1 h 58 min
Bit rate : 31.7 kb/s
Count of elements : 4351
Stream size : 27.0 MiB (1%)
Language : Japanese
Default : No
Forced : No

Text #2
ID : 5
Format : PGS
Muxing mode : zlib
Codec ID : S_HDMV/PGS
Codec ID/Info : Picture based subtitle format used on BDs/HD-DVDs
Duration : 1 h 58 min
Bit rate : 40.4 kb/s
Count of elements : 2413
Stream size : 34.4 MiB (1%)
Language : English
Default : No
Forced : No

Text #3
ID : 6
Format : PGS
Muxing mode : zlib
Codec ID : S_HDMV/PGS
Codec ID/Info : Picture based subtitle format used on BDs/HD-DVDs
Duration : 1 h 58 min
Bit rate : 43.3 kb/s
Count of elements : 2796
Stream size : 36.8 MiB (1%)
Language : French
Default : No
Forced : No

Text #4
ID : 7
Format : PGS
Muxing mode : zlib
Codec ID : S_HDMV/PGS
Codec ID/Info : Picture based subtitle format used on BDs/HD-DVDs
Duration : 1 h 58 min
Bit rate : 51.9 kb/s
Count of elements : 2254
Stream size : 44.0 MiB (1%)
Language : German
Default : No
Forced : No

Text #5
ID : 8
Format : PGS
Muxing mode : zlib
Codec ID : S_HDMV/PGS
Codec ID/Info : Picture based subtitle format used on BDs/HD-DVDs
Duration : 1 h 58 min
Bit rate : 35.0 kb/s
Count of elements : 2342
Stream size : 29.8 MiB (1%)
Language : Russian
Default : No
Forced : No

Menu
00:00:00.000 : en:Introduction
00:05:07.160 : en:Urban Developement
00:09:37.160 : en:Transforming
00:17:27.480 : en:The Attack
00:22:47.320 : en:Victory Celebration
00:27:45.080 : en:Monster Town
00:31:41.240 : en:Shokichi & Okiyo
00:41:53.200 : en:Preparing For Winter
00:46:52.560 : en:Spring Is Here
00:53:18.320 : en:Food Crisis
00:58:26.200 : en:Operation Spector
01:06:25.240 : en:Monster Parade
01:13:13.400 : en:The Funeral
01:18:05.120 : en:Wonderland
01:23:29.920 : en:Difficult Choice
01:29:55.760 : en:The Revenge
01:34:22.400 : en:Raccoons' Appeal
01:40:29.920 : en:Last Strength
01:46:27.560 : en:Living Together
01:49:59.120 : en:Conclusion / End Credits
01:54:15.880 : en:End Credits

Files:

  • Pom Poko (Heisei Tanuki Gassen Ponpoko) 1994 1080p Bluray x265 10Bit AAC 2.0 - GetSchwifty.mkv (3.4 GB)

Comments

Code:

  • udp://tracker.coppersurfer.tk:6969/announce
  • udp://tracker.opentrackr.org:1337/announce
  • udp://tracker.torrent.eu.org:451/announce
  • http://tracker.tfile.me:80/announce
  • http://t.nyaatracker.com:80/announce
  • http://retracker.mgts.by:80/announce
  • http://tracker.yoshi210.com:6969/announce
SitemapWatch Movie | Watch movie | 下载 APK ESTATE SALE LOT OLD US PROOF and UNCIRCULATED COINS ✯SILVER GOLD 4 ✯FREE BONUS✯$11.5 3d left | Mary + Jane | Mary Poppins Returns (2018) HDCAMRip Full English Movie Watch Online Watch Mary Poppins Returns (2018) HDCAMRip Full English Movie & Download Free English Movie Mary Poppins Returns (2018) HDCAMRip Full Cast and Crew Details. Film Name :- Mary Poppins Returns (2018) HDCAMRip Directed by: Rob Marshall Written by: David Magee, David Magee Starring by: Emily Blunt, Lin-Manuel Miranda, Ben Whishaw Genres: Comedy, Family, Fantasy, Musical Country: USA Language: English   Option -1 NetuTV Player 1 Option -2 WatchVideo Player 2 Option -3 Openload Player 3 Option -4 VideoMega Player 4 Option -5 Videoweed Player 5 Option ...